Detective Conan Película 15: 15 minutos de silencio [DVDRip] [SubEspañol] [Mediafire]

Detective Conan Película 15: 15 minutos de silencio [DVDRip] [SubEspañol] [Mediafire] DVDRip Español Latino




TÍTULO ORIGINAL: Chinmoku no 15 fun
ESTRENO: 16/04/2011 (Japón)
DURACIÓN: 109 min.


INFO DEL RIPEO







Código:
General
Complete name: Detective.Conan.Pelicula.15-15MinutosdeSilencio.SubEsp.avi
Format : AVI
Format/Info: Audio Video Interleave
File size: 660 MiB
Duration : 1h 49mn
Overall bit rate : 841 Kbps

Video
ID : 0
Format : MPEG-4 Visual
Format profile : Advanced Simple@L5
Format settings, BVOP: 2
Format settings, QPel: No
Format settings, GMC : No warppoints
Format settings, Matrix: Default (H.263)
Codec ID : XVID
Codec ID/Hint: XviD
Duration : 1h 49mn
Bit rate : 700 Kbps
Width: 848 pixels
Height : 480 pixels
Display aspect ratio : 16:9
Frame rate : 29.970 fps
Color space: YUV
Chroma subsampling : 4:2:0
Bit depth: 8 bits
Scan type: Progressive
Compression mode : Lossy
Bits/(Pixel*Frame) : 0.057
Stream size: 549 MiB (83%)
Writing library: XviD 1.2.1 (UTC 2008-12-04)

Audio
ID : 1
Format : MPEG Audio
Format version : Version 1
Format profile : Layer 3
Mode : Joint stereo
Mode extension : MS Stereo
Codec ID : 55
Codec ID/Hint: MP3
Duration : 1h 49mn
Bit rate mode: Constant
Bit rate : 128 Kbps
Channel(s) : 2 channels
Sampling rate: 44.1 KHz
Compression mode : Lossy
Stream size: 100 MiB (15%)
Alignment: Aligned on interleaves
Interleave, duration : 26 ms (0.78 video frame)
Interleave, preload duration : 182 ms
Title: raw15


¡15 segundos antes para la explosión del tren subterráneo! Un día de Diciembre llega una misteriosa nota de amenaza a la sección de Asakura. Ese día, ¡Explota el túnel subterráneo de una línea de tren recién abierta! Sin embargo, gracias a Conan que se enteró de la nota de amenaza por Kogoro, el caso se cerró sin dejar a ninguna persona herida, pero…





Esto quiere decir que puedes descargar varios archivos desde distintos servidores a la vez.Esto resulta muy útil para gente sin cuentas premium o con conexiones lentas.


rakk







ABRE ESTE BLOC DE NOTAS PARA VER LOS ENLACES





SI TENÉIS ALGÚN PROBLEMA CON LOS LINKS, ETC. AVISAD POR MP.
Detective Conan Película 15: 15 minutos de silencio [DVDRip] [SubEspañol] [Mediafire] DVDRip Español Latino

15 conan minutos de silencio parte 2, detective conan película 15, descargar 15 minutos de silencio mega, detective conan pelicula 15 sub español online torrent

Deja un comentario